Доктор Стрэндж

Лицензия

Добыча

MVO

Дом дракона

1 сезон

Тор

Лицензия

Мэверик

Лицензия

Там, где раки поют

MVO

Властелин колец

1 сезон

Ultimate

pack

Рекомендуем

30

Repack

ВАЖНО

ВАЖНО

Ghostwire

RePack

jed

RePack

nioh2

RePack

RDR2

RePack

NEED FOR SPEED™ PAYBACK

RePack

скачать торрент

Кинопоиск HD

Острые козырьки 6 сезон

6 сезон

FAR CRY 6

RePack

скачать торрент

Лицензия

скачать торрент

MVO

1

1 сезон

скачать торрент

1 сезон

скачать торрент

Лицензия

  

Реальные пацаны / Сезон: 13 / Серии: 1-20 из 20 + Фильм о фильме (Жанна Кадникова) [2022, Комедия, WEBRip 1080p]

Реальные пацаны через торрент 01t2.vidak.icu

Раздают: 3 [ 616 KB/s ] Качают: 1 [ 0 KB/s ]
Размер: 15.32 GB | Добавлен: 13 д. назад | Торрент скачан:32 раза
Смотреть онлайн | Скачать   

30-08-2022 05:09 Реальные пацаны Скачать торрент  

Реальные пацаны
Год выпуска: 2022
Страна: Россия
Жанр: Комедия
Продолжительность: ~ 00:23:00
Субтитры: отсутствуют

Режиссер: Жанна Кадникова

rating

В ролях: Николай Наумов, Зоя Бербер, Марина Федункив, Владимир Селиванов, Валентина Мазунина, Мария Скорницкая, Игорь Ознобихин, Алексей Базанов, Сергей Ершов

Описание: Колян и его друзья возвращаются в родную Пермь. После выхода из тюрьмы Колян решает написать автобиографию, для чего возвращается в лучшее место для поиска ностальгии – свою старую квартиру, где ещё 12 лет назад начал записывать видеодневники о жизни реального пацана. Каждая новая глава открывает в Коляне что-то новое – причём как для себя, так и для окружающих. Лера переоценит свои отношения с Колей и посмотрит на них со стороны, Вован столкнётся с постродовой депрессией и родительским кризисом, Валя будет утопать в работе главы района, Иваныч запустит политическую карьеру и включится в губернаторскую гонку, а Машка уйдёт от Эдика, который в этот раз попытается освоить мастерство онлайн-трейдера.

Качество: WEBRip 1080p
Формат: MKV

Видео: MPEG-4 AVC, 1920x1072, ~ 4500 Кбит/с, 0.086 bit/pixel, 25 Кадр/с
Аудио: 48.0 kHz, AC3 Dolby Digital, 2/0 (L,R) ch, ~ 192 kbps
скриншот  скриншот  скриншот  скриншот  скриншот  скриншот  

Общее
Уникальный идентификатор : 171436346510003004519436942590588650551 (0x80F97077EE3D64BC5B712DBA04828437)
Полное имя : D:\Realnye.pacany.S13.2022.WEBRip.1080p\Realnye.pacany.S13.E01.2022.WEBRip.1080p.mkv
Формат : Matroska
Версия формата : Version 4
Размер файла : 766 Мбайт
Продолжительность : 23 м. 15 с.
Режим общего битрейта : Переменный
Общий поток : 4 607 Кбит/сек
Название фильма : Realnye.pacany.S13.E01.2022.WEBRip.1080p
Дата кодирования : UTC 2022-08-29 17:33:15
Программа кодирования : mkvmerge v68.0.0 ('The Curtain') 64-bit
Библиотека кодирования : libebml v1.4.2 + libmatroska v1.6.4
Attachments : poster.jpg

Видео
Идентификатор : 1
Формат : AVC
Формат/Информация : Advanced Video Codec
Профиль формата : [email protected]
Настройки формата : CABAC / 2 Ref Frames
Параметр CABAC формата : Да
Параметр RefFrames формата : 2 кадра
Идентификатор кодека : V_MPEG4/ISO/AVC
Продолжительность : 23 м. 15 с.
Вид битрейта : Переменный
Битрейт : 4 410 Кбит/сек
Максимальный битрейт : 4 500 Кбит/сек
Ширина : 1 920 пикселей
Высота : 1 072 пикселя
Соотношение сторон : 16:9
Режим частоты кадров : Постоянный
Частота кадров : 25,000 кадров/сек
Цветовое пространство : YUV
Субдискретизация насыщенности : 4:2:0
Битовая глубина : 8 бит
Тип развёртки : Прогрессивная
Бит/(Пиксели*Кадры) : 0.086
Размер потока : 733 Мбайт (96%)
Default : Да
Forced : Нет
Цветовой диапазон : Limited
Основные цвета : BT.709
Характеристики трансфера : BT.709
Коэффициенты матрицы : BT.709

Аудио
Идентификатор : 2
Формат : AC-3
Формат/Информация : Audio Coding 3
Коммерческое название : Dolby Digital
Идентификатор кодека : A_AC3
Продолжительность : 23 м. 15 с.
Вид битрейта : Постоянный
Битрейт : 192 Кбит/сек
Каналы : 2 канала
Channel layout : L R
Частота : 48,0 КГц
Частота кадров : 31,250 кадров/сек (1536 SPF)
Метод сжатия : С потерями
Задержка видео : -120 мс.
Размер потока : 31,9 Мбайт (4%)
Service kind : Complete Main
Default : Да
Forced : Нет

Когда раздача ведётся путём добавления новых серий, при каждом добавлении создётся новый торрент. Чтобы начать докачку новой серии, пользователям необходимо сделать следующее:
(1) остановить скачивание,
(2) удалить старый торрент у себя из клиента (старые серии удалять не надо),
(3) скачать новый торрент и запустить его у себя в клиенте вместо старого, при этом указать клиенту путь в старую папку, куда и должно происходить скачивание новых серий.
Ваш клиент при этом должен произвести хеширование (проверку) старой папки (если не производит сам - помогите ему сделать это), и будет докачивать только те серии, которых у вас ещё нет. Старые серии при этом не удаляются, а продолжают раздаваться!
Eсли вы уже удалили старые серии, то предотвратить повторную закачку старых серий можно, отжав галочку в соответсвующих местах при запуске нового торрента. По возможности, желательно не удалять старые серии как можно дольше, чтобы релизер не столько продолжал раздавать старые серии, а смог сконцентрироваться на новых.
Kbober100 писал(а):


Финал. Сериал закрыт!!!



Скачать Реальные пацаны через торрент https://i120.fastpic.org/big/2022/0828/ec/ac6847324183fad0b551016b42d4afec.jpg Скачать, смотреть онлайн Реальные пацаны бесплантно в хорошем качестве Описание: Колян и его друзья возвращаются в родную Пермь. После выхода из тюрьмы Колян решает написать автобиографию, для чего возвращается ... 9.1 10 19
Торрент: Зарегистрирован [2022-09-22 23:12] · скачан: 32 раз
Статус: √ проверено
Размер: 15.32 GB
Как cкачать? Как скачать Реальные пацаны через торрент | UTorrent

% Раздел Тема Автор DL S | L
Сериалы ТНТ [ 5.86 GB ] Реальные пацаны / Сезон: 13 / Серии: 1-20 из 20 | | SATRip bober100 Скачать
6 | 3
Сериалы ТНТ [ 10.39 GB ] Реальные пацаны / Сезон: 13 / Серии: 1-20 из 20 + Фильм о фильме | | 720p GEKADOL Скачать
3 | 0
T Наши фильмы (HD, WEB-DL 720p, 1080p) [ 2.84 GB ] Реальные пацаны против зомби | | 1080p bober100 Скачать
2 | 0
T Наши новые фильмы 2020 - 2022 [ 1.37 GB ] Реальные пацаны против зомби | | WEBRip bober100 Скачать
2 | 0
Наши новые фильмы 2020 - 2022 [ 749 MB ] Реальные пацаны против зомби | | WEBRip-AVC Lithuania Скачать
2 | 0
Сериалы ТНТ [ 21.96 GB ] Реальные пацаны / Сезон: 12 / Серии: 1-20 из 20 | | HDTV 1080i bober100 Скачать
1 | 1
Сериалы ТНТ [ 15.76 GB ] Реальные пацаны / Сезон: 12 / Серии: 1-20 из 20 + Фильм о фильме | | 1080p bober100 Скачать
2 | 0



Последний раз редактировалось: bober100 (2022-09-22 23:12), всего редактировалось 13 раз(а)

28-11-2019 20:33  


Отключить вcю реклaмy на сайте, в т.ч. и в плеере онлайн просмотра!

30-08-2022 19:29 Реальные пацаны Скачать торрент  

Ну да, лет 5 не смотрел этих утырков, а тут на скринах рожи уже возрастные такие.. Там ара был, муж хабалки, отчим Коляна, молчал все время, он как, сохранился в этом сезоне интересно?



05-09-2022 16:32 Реальные пацаны Скачать торрент  

david78 писал(а):

Ну да, лет 5 не смотрел этих утырков, а тут на скринах рожи уже возрастные такие.. Там ара был, муж хабалки, отчим Коляна, молчал все время, он как, сохранился в этом сезоне интересно?

да, есть он там



    Дорогой пользователь! Огромная просьба, поблагодарите релизера, оцените раздачу и оставьте свои комментарий, если Вы скачали Реальные пацаны через торрент бесплатно!!
    Комментировать посты могут только пользователи прошедшие не сложную регистрацию
    Показать сообщения:    


    Реальные пацаны через торрент
    Скачать бесплатно Реальные пацаны
    Реальные пацаны скачать торрент
    Реальные пацаны смотреть онлайн
    Cкачать фильм Реальные пацаны бесплатно
    Реальные пацаны скачать торрент в хорошем качестве
    Реальные пацаны смотреть онлайн бесплатно в хорошем качестве
    Вы не можете начинать темы
    Вы не можете отвечать на сообщения
    Вы не можете редактировать свои сообщения
    Вы не можете удалять свои сообщения
    Вы не можете голосовать в опросах
    Вы не можете прикреплять файлы к сообщениям
    Вы можете скачивать файлы