Доктор Стрэндж

Лицензия

Добыча

MVO

Дом дракона

1 сезон

Тор

Лицензия

Мэверик

Лицензия

Там, где раки поют

MVO

Властелин колец

1 сезон

Ultimate

pack

Рекомендуем

30

Repack

ВАЖНО

ВАЖНО

Ghostwire

RePack

jed

RePack

nioh2

RePack

RDR2

RePack

NEED FOR SPEED™ PAYBACK

RePack

скачать торрент

Кинопоиск HD

Острые козырьки 6 сезон

6 сезон

FAR CRY 6

RePack

скачать торрент

Лицензия

скачать торрент

MVO

1

1 сезон

скачать торрент

1 сезон

скачать торрент

Лицензия

  

Базз Лайтер / Lightyear (Энгус МакЛэйн) [2022, Мультфильм, фантастика, боевик, драма, приключения, семейный, BDRip 720p] 2xDUB [Cinema Tone Production, Red Head Sound] +2xMVO [Jaskier, TVShows]

Базз Лайтер через торрент 01t2.vidak.icu

Раздают: 5 [ 0 KB/s ]
Размер: 4.53 GB | Добавлен: 1 мес. 12 д. назад | Торрент скачан:65 раз
Смотреть онлайн | Скачать   

25-08-2022 04:10 Базз Лайтер Скачать торрент  

Базз Лайтер
Lightyear

Год выпуска: 2022
Страна: США
Студия: Pixar, Pixar Animation Studios, Walt Disney Pictures
Жанр: Мультфильм, фантастика, боевик, драма, приключения, семейный
Продолжительность: 01:45:05
Перевод(ы):
#1: Дублированный | Cinema Tone Production, Казахстан
#2: Дублированный | Red Head Sound
#3: Профессиональный многоголосый | Jaskier
#4: Профессиональный многоголосый | TVShows
Субтитры: Русские (Forced, 2 x full), английские

Режиссер: Энгус МакЛэйн

rating

В ролях: Крис Эванс, Кеке Палмер, Питер Сон, Тайка Вайтити, Дэйл Соулс, Джеймс Бролин, Узо Адуба, Мэри МаДональд-Льюис, Исайя Уитлок мл., Энгус МакЛэйн

Описание: Базз Лайтер, космический рейнджер из Звездного Командования, проведя годы, пытаясь вернуться домой, он сталкивается с армией безжалостных роботов под командованием Зурга, которые пытаются украсть его источник топлива.

Качество: BDRip 720p
Формат: MKV

Видео: MPEG-4 AVC, 1280x536, 4116 Кbit/s, 23.976 fps
Аудио #01: 48 kHz, AC3, 2.0, 192 Kbps | Дублированный | Cinema Tone Production, Казахстан | RUS |
Аудио #02: 48 kHz, AC3, 5.1, 640 Kbps | Дублированный | Red Head Sound | RUS |
Аудио #03: 48 kHz, AC3, 5.1, 384 Kbps | Профессиональный многоголосый | Jaskier | RUS |
Аудио #04: 48 kHz, AC3, 2.1, 192 Kbps | Профессиональный многоголосый | TVShows | RUS |
Аудио #05: 48 kHz, AC3, 5.1, 640 Kbps | Оригинал | ENG |
скриншот  скриншот  скриншот  скриншот  скриншот  скриншот  

General
Unique ID : 231215047111783784289263640525726022579 (0xADF265F5D85A768723FF2282D52FFBB3)
Complete name : F:VideoLightyear.2022.BDRip.720p.seleZen.mkv
Format : Matroska
Format version : Version 4
File size : 4.53 GiB
Duration : 1 h 45 min
Overall bit rate : 6 168 kb/s
Movie name : Lightyear 2022 from seleZen
Encoded date : UTC 2022-08-23 04:35:31
Writing application : mkvmerge v59.0.0 ('Shining Star') 64-bit
Writing library : libebml v1.4.2 + libmatroska v1.6.4

Video
ID : 1
Format : AVC
Format/Info : Advanced Video Codec
Format profile : [email protected]
Format settings : CABAC / 12 Ref Frames
Format settings, CABAC : Yes
Format settings, Reference : 12 frames
Codec ID : V_MPEG4/ISO/AVC
Duration : 1 h 45 min
Bit rate : 4 116 kb/s
Width : 1 280 pixels
Height : 536 pixels
Display aspect ratio : 2.40:1
Frame rate mode : Constant
Frame rate : 23.976 (24000/1001) FPS
Color space : YUV
Chroma subsampling : 4:2:0
Bit depth : 8 bits
Scan type : Progressive
Bits/(Pixel*Frame) : 0.250
Stream size : 3.02 GiB (67%)
Writing library : x264 core 164 r3085+55M seleZen t_mod_New [(8 & 10)[email protected] X86_64]
Encoding settings : cabac=1 / ref=12 / deblock=1:-2:-2 / analyse=0x3:0x133 / me=umh / subme=11 / psy=1 / fade_compensate=0.00 / psy_rd=1.03:0.06 / mixed_ref=1 / me_range=32 / chroma_me=1 / trellis=2 / 8x8dct=1 / cqm=0 / deadzone=21, 11 / fast_pskip=0 / chroma_qp_offset=-3 / threads=17 / lookahead_threads=2 / sliced_threads=0 / nr=0 / decimate=0 / interlaced=0 / bluray_compat=0 / constrained_intra=0 / fgo=0 / bframes=9 / b_pyramid=2 / b_adapt=2 / b_bias=0 / direct=1 / weightb=1 / open_gop=0 / weightp=2 / keyint=240 / keyint_min=23 / scenecut=40 / intra_refresh=0 / rc_lookahead=60 / rc=crf / mbtree=0 / crf=16.8000 / qcomp=0.60 / qpmin=0:0:0 / qpmax=51:51:51 / qpstep=4 / vbv_maxrate=50000 / vbv_bufsize=62500 / crf_max=0.0 / nal_hrd=none / filler=0 / ip_ratio=1.40 / pb_ratio=1.30 / aq=3:0.80 / aq-sensitivity=10.00 / aq-factor=1.00:1.00:1.00 / aq2=0 / aq3=0
Language : English
Default : Yes
Forced : No

Audio #1
ID : 2
Format : AC-3
Format/Info : Audio Coding 3
Commercial name : Dolby Digital
Codec ID : A_AC3
Duration : 1 h 45 min
Bit rate mode : Constant
Bit rate : 192 kb/s
Channel(s) : 2 channels
Channel layout : L R
Sampling rate : 48.0 kHz
Frame rate : 31.250 FPS (1536 SPF)
Compression mode : Lossy
Stream size : 144 MiB (3%)
Title : Dub [Cinema Tone Production]
Language : Russian
Service kind : Complete Main
Default : Yes
Forced : Yes

Audio #2
ID : 3
Format : AC-3
Format/Info : Audio Coding 3
Commercial name : Dolby Digital
Codec ID : A_AC3
Duration : 1 h 45 min
Bit rate mode : Constant
Bit rate : 640 kb/s
Channel(s) : 6 channels
Channel layout : L R C LFE Ls Rs
Sampling rate : 48.0 kHz
Frame rate : 31.250 FPS (1536 SPF)
Compression mode : Lossy
Stream size : 481 MiB (10%)
Title : Dub [Red Head Sound]
Language : Russian
Service kind : Complete Main
Default : No
Forced : No

Audio #3
ID : 4
Format : AC-3
Format/Info : Audio Coding 3
Commercial name : Dolby Digital
Codec ID : A_AC3
Duration : 1 h 45 min
Bit rate mode : Constant
Bit rate : 384 kb/s
Channel(s) : 6 channels
Channel layout : L R C LFE Ls Rs
Sampling rate : 48.0 kHz
Frame rate : 31.250 FPS (1536 SPF)
Compression mode : Lossy
Stream size : 289 MiB (6%)
Title : MVO [Jaskier]
Language : Russian
Service kind : Complete Main
Default : No
Forced : No

Audio #4
ID : 5
Format : AC-3
Format/Info : Audio Coding 3
Commercial name : Dolby Digital
Codec ID : A_AC3
Duration : 1 h 45 min
Bit rate mode : Constant
Bit rate : 192 kb/s
Channel(s) : 2 channels
Channel layout : L R
Sampling rate : 48.0 kHz
Frame rate : 31.250 FPS (1536 SPF)
Compression mode : Lossy
Stream size : 144 MiB (3%)
Title : MVO [TVShows]
Language : Russian
Service kind : Complete Main
Default : No
Forced : No

Audio #5
ID : 6
Format : AC-3
Format/Info : Audio Coding 3
Commercial name : Dolby Digital
Codec ID : A_AC3
Duration : 1 h 45 min
Bit rate mode : Constant
Bit rate : 640 kb/s
Channel(s) : 6 channels
Channel layout : L R C LFE Ls Rs
Sampling rate : 48.0 kHz
Frame rate : 31.250 FPS (1536 SPF)
Compression mode : Lossy
Stream size : 481 MiB (10%)
Title : Original
Language : English
Service kind : Complete Main
Default : No
Forced : No

Text #1
ID : 7
Format : UTF-8
Codec ID : S_TEXT/UTF8
Codec ID/Info : UTF-8 Plain Text
Duration : 1 h 33 min
Bit rate : 0 b/s
Frame rate : 0.002 FPS
Count of elements : 9
Stream size : 592 Bytes (0%)
Title : Forced
Language : Russian
Default : No
Forced : No

Text #2
ID : 8
Format : UTF-8
Codec ID : S_TEXT/UTF8
Codec ID/Info : UTF-8 Plain Text
Duration : 1 h 42 min
Bit rate : 90 b/s
Frame rate : 0.252 FPS
Count of elements : 1546
Stream size : 68.0 KiB (0%)
Title : Full [Official]
Language : Russian
Default : No
Forced : No

Text #3
ID : 9
Format : UTF-8
Codec ID : S_TEXT/UTF8
Codec ID/Info : UTF-8 Plain Text
Duration : 1 h 43 min
Bit rate : 105 b/s
Frame rate : 0.171 FPS
Count of elements : 1057
Stream size : 79.8 KiB (0%)
Title : Full v.2
Language : Russian
Default : No
Forced : No

Text #4
ID : 10
Format : UTF-8
Codec ID : S_TEXT/UTF8
Codec ID/Info : UTF-8 Plain Text
Duration : 1 h 42 min
Bit rate : 63 b/s
Frame rate : 0.272 FPS
Count of elements : 1667
Stream size : 47.5 KiB (0%)
Title : Full
Language : English
Default : No
Forced : No

Text #5
ID : 11
Format : UTF-8
Codec ID : S_TEXT/UTF8
Codec ID/Info : UTF-8 Plain Text
Duration : 1 h 44 min
Bit rate : 76 b/s
Frame rate : 0.330 FPS
Count of elements : 2076
Stream size : 58.3 KiB (0%)
Title : SDH
Language : English
Default : No
Forced : No

Menu
00:00:00.000 : Глава 01
00:04:43.742 : Глава 02
00:06:48.324 : Глава 03
00:08:13.118 : Глава 04
00:09:33.740 : Глава 05
00:11:58.384 : Глава 06
00:15:27.176 : Глава 07
00:18:05.042 : Глава 08
00:20:40.698 : Глава 09
00:22:34.394 : Глава 10
00:24:37.017 : Глава 11
00:25:41.873 : Глава 12
00:27:01.244 : Глава 13
00:30:53.268 : Глава 14
00:32:02.837 : Глава 15
00:33:32.927 : Глава 16
00:34:23.311 : Глава 17
00:36:56.798 : Глава 18
00:39:14.185 : Глава 19
00:41:55.596 : Глава 20
00:45:29.226 : Глава 21
00:50:28.942 : Глава 22
00:51:37.928 : Глава 23
00:54:23.093 : Глава 24
00:57:55.346 : Глава 25
01:02:11.436 : Глава 26
01:04:26.320 : Глава 27
01:07:35.843 : Глава 28
01:09:15.693 : Глава 29
01:10:32.770 : Глава 30
01:11:25.572 : Глава 31
01:15:37.824 : Глава 32
01:16:45.392 : Глава 33
01:17:44.076 : Глава 34
01:25:18.988 : Глава 35
01:27:10.683 : Глава 36
01:29:00.960 : Глава 37
01:30:42.186 : Глава 38
01:33:45.619 : Глава 39
01:36:02.381 : Глава 40
01:43:35.500 : Глава 41




Скачать Базз Лайтер через торрент https://i120.fastpic.org/big/2022/0825/47/abf51e9b61b62b515b9b2c25cd088547.jpg Скачать, смотреть онлайн Базз Лайтер бесплантно в хорошем качестве Описание: Базз Лайтер, космический рейнджер из Звездного Командования, проведя годы, пытаясь вернуться домой, он сталкивается с армией ... 10 10 3
Торрент: Зарегистрирован [2022-08-25 04:10] · скачан: 65 раз
Статус: √ проверено
Размер: 4.53 GB
Как cкачать? Как скачать Базз Лайтер через торрент | UTorrent

% Раздел Тема Автор DL S | L
Зарубежные Мультфильмы (WEB-DL 720p, 1080p) [ 7.34 GB ] Базз Лайтер / Lightyear | Jaskier | 1080p bober100 Скачать
13 | 0
Мультфильмы (48-60 fps) [ 4.66 GB ] Базз Лайтер / Lightyear | Дубляж | DLRip 720p / 60 FPS slaventi-69 Скачать
7 | 0
Ultra HD (UHD: 2K, 4K, 8K) [ 36.84 GB ] Базз Лайтер / Lightyear | Jaskier | 2160p bober100 Скачать
1 | 0
Мультфильмы (48-60 fps) [ 3.59 GB ] Базз Лайтер / Lightyear | Дубляж | DLRip 720p / 60 FPS slaventi-69 Скачать
5 | 0
Иностранные мультфильмы [ 1.75 GB ] Базз Лайтер / Lightyear | Jaskier | DLRip bober100 Скачать
7 | 0

28-11-2019 20:33  


Отключить вcю реклaмy на сайте, в т.ч. и в плеере онлайн просмотра!

    Дорогой пользователь! Огромная просьба, поблагодарите релизера, оцените раздачу и оставьте свои комментарий, если Вы скачали Базз Лайтер через торрент бесплатно!!
    Комментировать посты могут только пользователи прошедшие не сложную регистрацию
    Показать сообщения:    


    Базз Лайтер через торрент
    Скачать бесплатно Базз Лайтер
    Базз Лайтер скачать торрент
    Базз Лайтер смотреть онлайн
    Cкачать фильм Базз Лайтер бесплатно
    Базз Лайтер скачать торрент в хорошем качестве
    Базз Лайтер смотреть онлайн бесплатно в хорошем качестве
    Вы не можете начинать темы
    Вы не можете отвечать на сообщения
    Вы не можете редактировать свои сообщения
    Вы не можете удалять свои сообщения
    Вы не можете голосовать в опросах
    Вы не можете прикреплять файлы к сообщениям
    Вы можете скачивать файлы